#TITLE:Force Your Way;
#SUBTITLE:Final Fantasy VIII;
#ARTIST:The Black Mages;
#TITLETRANSLIT:;
#SUBTITLETRANSLIT:;
#ARTISTTRANSLIT:;
#CREDIT:;
#BANNER:Force-ba.png;
#BACKGROUND:Force-bg.jpg;
#LYRICSPATH:;
#CDTITLE:Mus1c.png;
#MUSIC:03 Force Your Way (Final Fantasy VIII).mp3;
#OFFSET:-0.300;
#SAMPLESTART:58.960;
#SAMPLELENGTH:12.000;
#SELECTABLE:YES;
#BPMS:0.000=164.920;
#STOPS:;
#BGCHANGES:;
// cache tags:
#FIRSTBEAT:0.000;
#LASTBEAT:623.500;
#SONGFILENAME:Songs/nhac/Force Your Way/force.sm;
#HASMUSIC:1;
#HASBANNER:1;
#MUSICLENGTH:231.243;
// end cache tags

//---------------dance-single - ----------------
#NOTES:
     dance-single:
     :
     Hard:
     10:
     0.952,1.000,0.973,0.428,0.647,1217.000,225.000,99.000,0.000,28.000:
0001
0010
1000
0001
0100
1000
0100
1000
,
0001
0010
1000
0100
1000
0001
0100
0010
,
1000
0100
0001
0100
1000
0010
1000
0100
,
1000
0001
1000
0100
0001
0100
0100
0100
,
0010
0100
0001
1000
0100
1000
0010
1000
,
0100
0001
0100
0010
1000
0100
0001
0100
,
0010
1000
0100
1000
0100
0001
0010
1000
,
0100
0010
0001
0100
0010
1000
1000
1000
,
0110
0001
0100
0011
1000
0100
0011
0100
,
0010
1010
0001
0100
1001
0100
0010
0001
,
0110
0001
1000
0011
0100
0010
1010
0100
,
0001
0101
0010
1000
0110
0010
1001
0010
,
1100
0010
0100
1001
0100
0010
1001
0100
,
1000
0110
0001
0010
0101
0010
1000
0100
,
0011
0100
0010
1100
0001
0100
1010
0100
,
0001
0000
1010
0000
0100
0000
0001
0000
0101
0000
0100
0010
1001
0000
0000
0000
,
0001
0010
0100
1000
0001
0010
0100
1000
0001
0010
0100
1000
0001
0010
1000
0100
,
0010
0001
1000
0100
0010
0001
1000
0100
0010
0001
1000
0100
0010
0001
1000
0100
,
0010
1000
0010
1000
0010
1000
0100
0001
0010
0100
1000
0100
0010
1000
0010
0100
,
0001
1000
0100
0001
0010
0100
0001
1000
0110
0000
0000
0000
0101
0000
0000
0000
,
0001
1000
0001
1000
0001
1000
0001
1000
0001
1000
0001
1000
0001
0100
0001
0100
,
0001
0100
0001
0100
0001
0100
0001
0100
0001
0100
0001
0100
0001
0100
0001
1000
,
0100
0010
0001
0010
0100
1000
0100
0010
0001
0100
1000
0010
0001
0010
0100
0001
,
1000
0100
1000
0001
0010
0100
0001
1000
0110
0000
0000
0000
0110
0000
0000
0000
,
0001
0010
0001
0010
0001
0010
0001
0010
0001
0010
0001
0010
0100
1000
0100
1000
,
0100
1000
0100
1000
0100
1000
0100
1000
0100
1000
0100
1000
0100
1000
0100
0001
,
0010
0100
1000
0100
0010
0001
0010
0100
1000
0100
0010
0001
0010
0100
1000
0010
,
0001
0100
2010
0000
0000
0000
3000
0000
0110
0000
0000
0000
0101
0000
0000
0000
,
0001
1000
0001
0010
0001
0100
0001
1000
0001
0100
0001
0010
0001
0100
1000
0001
,
1000
0010
1000
0001
1000
0100
1000
0010
1000
0001
1000
0100
1000
0010
1000
0001
,
0100
0001
1000
0100
0010
0001
1000
0010
0001
0010
0100
1000
0001
0100
1000
0001
,
0010
0100
1002
0000
0000
0000
0003
0000
1100
0000
0000
0000
0011
0000
0000
0000
,
1100
0000
0011
0001
1100
1000
0110
0010
,
0101
0100
1001
0001
1100
1000
0011
0010
,
1100
0100
0011
0001
0110
0010
1001
1000
,
0110
0100
1001
0120
0000
0030
0110
0000
,
1100
0000
0011
0010
1010
0010
0011
0010
,
0110
0010
1010
0010
0011
0010
1010
0010
,
0011
0010
1100
1000
1001
1000
1010
1000
,
1100
1000
1010
0001
0001
0001
0011
0010
,
1010
1000
1010
0010
0110
0100
1000
1000
,
1000
0010
0001
0010
1000
0100
0100
0010
,
0010
0100
0100
1000
1000
1000
0010
0001
,
0010
0001
0100
0010
0100
0010
0001
1000
,
0001
1000
0001
0100
0001
0100
0010
0010
,
0010
1000
0100
0001
0010
1000
1000
0001
,
0001
0100
0100
0010
0010
0010
1000
0001
,
1000
0001
0010
0100
0010
0100
1000
0100
,
1000
0100
0001
0002
0000
0003
0100
0100
,
0100
0001
0010
1000
0100
0001
0001
0100
,
0100
0001
0001
1000
1000
1000
0010
0100
,
0010
0100
0001
0010
0100
1000
0100
0010
,
0100
0010
1000
0100
1000
0100
0001
0001
,
0001
0100
1000
0010
0001
0100
0100
0010
,
0010
1000
1000
0100
0100
0100
0011
0011
,
0011
0011
1100
1100
1100
1100
0110
0110
,
0110
0000
0000
0110
0000
0000
0001
0000
0010
0000
0100
0000
1000
0000
0100
0000
1000
0000
0200
0000
0000
0000
0000
0000
,
2300
0000
0000
0000
3002
0000
0000
0000
0000
0203
0000
0000
0000
0320
0000
0000
,
0000
2030
0000
3002
0000
0203
0000
0320
,
0000
0000
0000
2030
0000
0000
0000
3200
0000
0000
0000
0320
0000
0000
0000
0000
,
0032
0023
0230
2300
,
3110
0110
0110
0101
1100
0110
0011
1001
,
1001
0000
1001
0000
1100
0000
0011
0000
0110
0000
0011
0000
0110
0000
1100
0001
,
0010
0100
1000
0001
0010
0100
1000
0001
0010
0100
1000
0001
0010
0100
1000
0001
,
0010
0100
1000
0001
0010
0100
0010
0100
0010
0100
0010
0100
0010
0100
0010
0100
,
0010
0100
1000
0100
0010
0001
1000
0100
0010
0001
1000
0100
0010
0001
0010
0100
,
1000
0001
1000
0001
1000
0001
1000
0001
1000
0100
0010
0100
0010
0100
0010
0001
,
0100
0001
0100
0001
0010
1000
0010
1000
0010
1000
0010
0100
1000
0100
0010
0001
,
0010
0100
0010
0001
1000
0100
0001
0100
0010
0100
1000
0001
0010
0100
1000
0001
,
0010
0000
0100
0000
2020
0000
0000
0000
3030
0000
0000
0000
1000
0001
0000
0000
0000
0000
0000
0000
0000
0000
0000
0000
1000
0001
0000
0000
0000
0000
0000
0000
,
0000
0000
0000
0000
1000
0001
0000
0000
0000
0000
0000
0010
0100
0000
0000
0000
0000
0010
0100
0000
0000
0000
0010
0000
0100
0000
0000
0000
0010
0100
0000
0000
,
0000
0010
0100
0000
0000
0000
0000
0000
0000
0000
0000
0000
0000
0000
0000
0000
0000
0000
0000
0000
0011
0000
0000
0000
0011
0000
0000
0000
0011
0000
0000
0000
,
0000
0000
0000
0000
0000
0000
0000
0000
0000
0000
1010
0000
0000
0000
0000
0000
0000
0000
1010
0000
0000
0000
0000
0000
0000
0000
1000
0000
0000
0100
0000
0000
1000
0000
0000
0000
0000
0000
0000
0000
0000
0000
0000
0000
0000
0000
0000
0000
0021
0000
0000
0000
0000
0000
0000
0000
0000
0000
0000
0000
0000
0000
0000
0000
,
1130
0000
0001
0010
0100
1000
0001
0100
0010
0001
1000
0100
0001
0010
1000
0100
,
0001
0000
0000
1000
0000
0000
0100
0000
0000
0010
0000
0000
1000
0000
0000
0001
0000
0000
0100
0000
0000
0010
0000
0000
1000
0000
0000
0010
0000
0000
0100
0000
0000
0001
0000
0000
1000
0000
0000
0000
0010
0000
0100
0000
0000
0000
0000
0000
,
0010
0100
0000
0000
0010
0100
0000
0000
0010
0100
0000
0000
0010
0100
0000
0000
0010
0100
0000
0000
0010
0100
0000
0000
,
0010
0100
0000
0000
0010
0100
0000
0000
0220
0000
0000
0000
0330
0000
0000
0000
0000
0000
0000
0000
0000
0000
0000
0000
,
1100
0000
0001
0010
0100
1000
0100
0001
1000
0010
0100
0001
1100
0000
1100
0000
,
0000
0110
0001
0010
1000
0100
0001
0100
0010
0100
0010
1000
0010
0100
0001
0010
,
0100
1000
0100
0001
0010
0100
0010
0001
0010
1000
0100
0010
0001
0100
0010
0100
,
0001
0100
0010
0001
0010
0100
1000
0100
0010
0001
0010
0100
0001
0010
0001
0100
,
1000
0001
1000
0100
1000
0001
1000
0010
1000
0001
0100
0010
0001
0100
0010
0001
,
1000
0100
0001
0100
0010
1000
0001
0010
0100
1000
0100
0010
0001
1000
0001
0100
,
0001
0010
0001
1000
0001
0100
0001
0010
0100
0001
1000
0100
0010
0001
1000
0100
,
0002
0000
0000
0000
0000
0000
0000
0000
0000
0003
0000
0000
0000
0000
0000
0000
,
0011
1000
0100
0010
0001
1000
0100
0010
0001
0100
0010
0001
0100
1000
0010
0001
,
0100
1000
0010
0100
0011
0000
0011
0000
0011
0000
0011
0000
0110
0000
0000
0110
,
0000
0000
0000
0000
0000
1100
0000
0000
0000
0000
0000
0000
0110
0000
0000
0000
,
0000
0000
0101
0000
0000
0000
0000
0000
0020
0000
0000
0230
0000
0000
0311
0000
,
0000
0000
1001
0000
1100
0000
1010
0000
1001
0000
0000
0110
0000
0000
0101
0000
,
0000
1100
0000
0000
1100
0000
0000
0101
0000
0000
0101
0000
0000
0110
0000
0000
,
0010
0100
0010
0100
0010
0100
0010
0100
0010
0100
0010
0100
0010
0100
0001
0010
,
0100
0000
0000
1000
0000
0000
0010
0000
0000
0001
0000
0000
0010
0000
0000
0100
0000
0000
0001
0000
0000
1000
0000
0000
0100
0000
0000
0000
0010
0000
0000
0000
0001
0000
0000
0000
0100
0000
0000
0000
0010
0000
0000
0000
1000
0000
0000
0000
,
0110
0100
0100
0100
0001
0001
0001
0001
,
1000
1000
1000
0100
0100
0100
0100
0100
,
1000
1000
1000
0010
0010
0010
0001
0001
,
0001
1000
1000
1000
0001
0001
0001
0001
,
0002
0000
0000
0100
0000
0000
0010
0000
,
0000
1000
0000
0000
0100
0100
0100
0100
,
2003
0000
0000
0100
0000
0000
0001
0000
,
0000
0000
0000
0000
0000
0000
0010
0000
0000
0000
0000
0000
0000
0000
0000
0000
0000
0000
0000
0000
0000
3000
0001
0000
0010
0000
0100
0000
2000
0000
0000
0000
0000
0000
0000
0000
3000
0000
0000
0000
0000
0000
0000
0000
0000
0000
0000
0000
,
0010
0010
0010
0010
0110
0100
0100
0100
,
1100
1000
1000
1000
1001
0001
0001
0001
,
0011
0010
0010
0010
1010
1000
1000
1000
,
1001
0001
0001
0001
0101
0100
0100
0100
,
0020
0000
0000
0000
,
0032
0000
0023
0000
,
0230
0000
0000
0302
0023
0000
0000
0000
,
0000
0000
0230
2300
,
3020
0000
0230
0000
,
0000
0000
0302
0000
,
0023
0000
0230
0000
,
0000
0000
0000
0000
,
1302
0000
0000
0000
,
0213
0000
2310
0000
,
3102
0000
0000
1203
0321
0000
0000
0000
,
0000
0000
2130
3102
,
0123
0000
2130
0000
,
0000
0000
3012
0000
,
0213
0000
0000
0000
,
0000
0000
0000
0000
,
2302
0000
0000
0000
,
3223
0000
0000
0000
0000
0000
0000
0030
2320
0000
0000
0000
0000
0000
0000
0000
,
3232
0000
0000
0000
0000
0003
0322
0000
2233
0000
0000
0000
0000
0000
0000
0000
,
0000
0000
0000
0000
0000
0000
0000
0000
3322
0000
0000
0030
0223
0000
0000
0030
,
2320
0000
0000
0000
0000
0000
0000
3000
2230
0000
0000
0000
0000
0000
0000
0000
,
0000
0000
0000
0000
0000
0000
0000
0300
3202
0000
0000
0000
0000
0000
0000
0300
,
0223
0000
2332
0000
,
0000
0000
0000
3003
,
0012
0003
1000
0001
2000
3000
0010
1000
,
0200
0000
0300
0000
0011
1100
0110
1001
,
0110
0000
0000
0001
0010
0100
1000
0010
,
0200
0000
0000
0000
0320
0000
0000
0030
,
1020
0030
0001
0100
0020
0030
1000
0100
,
0002
0003
2001
0000
,
0000
0000
0000
0000
0000
0000
0100
0000
0000
0000
0000
0010
0000
0000
0000
0000
,
0000
0000
0000
0000
0000
0000
0001
0000
0000
0000
0000
0000
0000
0000
0000
3000
0000
0000
0000
0000
0001
0000
0010
0000
0100
0000
1000
0000
0000
0000
0000
0000
0000
0000
0000
0000
0000
0000
0000
0000
0000
0000
0000
0000
0000
0000
0000
0000
,
0101
0010
0100
1001
0100
0010
1100
0001
,
0100
0011
0100
0010
1100
1000
0001
0100
,
1010
0001
1000
0101
0010
1000
0110
0001
,
0010
2200
0000
3300
0011
0000
1100
0000
,
0110
0001
0010
1001
0100
1000
0011
0100
,
0001
1100
0010
0100
1010
0100
0001
0010
,
0101
1000
0001
0110
0001
0010
1100
0001
,
0100
0022
0000
0033
1100
0000
0011
0000
,
1100
0100
1010
0010
1100
0100
0011
0010
,
1001
0001
1010
1000
0110
0010
0101
0100
,
1001
0001
1010
1000
0110
0010
0101
0001
,
0100
2020
0000
3030
0101
0000
0011
0000
,
1001
1000
1010
1000
1100
1000
1001
1000
,
1100
1000
1010
1000
1001
1000
1010
0010
,
0011
0010
0110
0010
1010
0010
0110
0100
,
0100
1100
1000
1000
1010
0010
0110
0100
,
0101
0001
1001
1000
0001
0001
0001
0100
,
1000
0100
0001
1000
1000
0010
0010
1000
,
1000
0100
0010
2002
0000
0000
0000
3003
;

//---------------dance-single - ----------------
#NOTES:
     dance-single:
     :
     Challenge:
     11:
     0.977,1.000,1.000,0.394,0.685,1235.000,241.000,91.000,0.000,32.000:
0001
0010
1000
0001
0100
1000
0100
1000
,
0001
0010
1000
0100
1000
0001
0100
0010
,
1000
0100
0001
0100
1000
0010
1000
0100
,
1000
0001
1000
0100
0001
0100
0100
0100
,
0010
0100
0001
1000
0100
1000
0010
1000
,
0100
0001
0100
0010
1000
0100
0001
0100
,
0010
1000
0100
1000
0100
0001
0010
1000
,
0100
0010
0001
0100
0010
1000
1000
1000
,
0110
0001
0100
0011
1000
0100
0011
0100
,
0010
1010
0001
0100
1001
0100
0010
0001
,
0110
0001
1000
0011
0100
0010
1010
0100
,
0001
0101
0010
1000
0110
0010
1101
0010
,
1100
0010
0100
1001
0100
0010
1001
0100
,
1000
0110
0001
0010
0101
0010
1000
0100
,
0011
0100
0010
1100
0001
0100
1010
0100
,
0001
0000
1010
0000
0100
0000
0001
0000
0101
0000
0100
0010
1001
0000
0000
0000
,
0001
0010
0100
1000
0001
0010
0100
1000
0001
0010
0100
1000
0001
0010
1000
0100
,
0010
0001
1000
0100
0010
0001
1000
0100
0010
0001
1000
0100
0010
0001
1000
0100
,
0010
1000
0010
1000
0010
1000
0100
0001
0010
0100
1000
0100
0010
1000
0010
0100
,
0001
1000
0100
0001
0010
0100
0001
1000
0110
0000
0000
0000
0101
0000
0000
0000
,
0001
1000
0001
1000
0001
1000
0001
1000
0001
1000
0001
1000
0001
0100
0001
0100
,
0001
0100
0001
0100
0001
0100
0001
0100
0001
0100
0001
0100
0001
0100
0001
1000
,
0100
0010
0001
0010
0100
1000
0100
0010
0001
0100
1000
0010
0001
0010
0100
0001
,
1000
0100
1000
0001
0010
0100
0001
1000
0110
0000
0000
0000
0110
0000
0000
0000
,
0011
1000
0001
1000
0001
1000
0011
1000
0001
1000
0001
1000
0011
0100
0001
0100
,
0001
0100
0011
0100
0001
0100
0001
0100
0011
0100
0001
0100
0001
0100
0001
1000
,
0110
0001
0010
0100
1000
0001
0110
1000
0100
0010
0100
1000
0011
0100
0010
0100
,
0001
0100
2010
0000
0000
0000
3000
0000
0110
0000
0000
0000
0101
0000
0000
0000
,
0021
1000
0031
1000
0001
1000
0021
1000
0031
1000
0001
1000
0021
1000
0031
0100
,
0001
0100
0021
0100
0031
0100
0001
0100
0021
0100
0031
0100
0001
0100
0001
1000
,
0110
0001
1000
0100
0010
0001
1100
0010
0001
0010
0100
1000
0011
0100
1000
0001
,
0010
0100
1002
0000
0000
0000
0003
0000
1100
0000
0000
0000
0011
0000
0000
0000
,
1100
0000
0011
0001
1100
1000
0110
0010
,
0101
0100
1001
0001
1100
1000
0011
0010
,
1100
0100
0011
0001
0110
0010
1001
1000
,
0110
0100
1001
0120
0000
0030
0110
0000
,
1100
0000
0011
0010
1010
0010
0011
0010
,
0110
0010
1010
0010
0011
0010
1010
0010
,
0011
0010
1100
1000
1001
1000
1010
1000
,
1100
1000
1010
0001
0001
0001
0011
0010
,
1010
1000
1010
0010
0110
0100
1000
1000
,
1000
0010
0001
0010
1000
0100
0100
0010
,
0010
0100
0100
1000
1000
1000
0010
0001
,
0010
0001
0100
0010
0100
0010
0001
1000
,
0001
1000
0001
0100
0001
0100
0010
0010
,
0010
1000
0100
0001
0010
1000
1000
0001
,
0001
0100
0100
0010
0010
0010
1000
0001
,
1000
0001
0010
0100
0010
0100
1000
0100
,
1000
0100
0001
0002
0000
0003
0100
0100
,
0100
0001
0010
1000
0100
0001
0001
0100
,
0100
0001
0001
1000
1000
1000
0010
0100
,
0010
0100
0001
0010
0100
1000
0100
0010
,
0100
0010
1000
0100
1000
0100
0001
0001
,
0001
0100
1000
0010
0001
0100
0100
0010
,
0010
1000
1000
0100
0100
0100
0011
0011
,
0011
0011
1100
1100
1100
1100
0110
0110
,
0110
0000
0000
0110
0000
0000
0001
0000
0010
0000
0100
0000
1000
0000
0100
0000
1000
0000
0200
0000
0000
0000
0000
0000
,
2300
0000
0000
0000
3002
0000
0000
0000
0000
0203
0000
0000
0000
0320
0000
0000
,
0000
2030
0000
3002
0000
0203
0000
0320
,
0000
0000
0000
2030
0000
0000
0000
3200
0000
0000
0000
0320
0000
0000
0000
0000
,
0032
0023
0230
2300
,
3110
0110
0110
0101
1100
0110
0011
1001
,
1001
0000
1001
0000
1100
0000
0011
0000
0110
0000
0011
0000
0110
0000
1100
0001
,
0010
0100
1000
0001
0010
0100
1000
0001
0010
0100
1000
0001
0010
0100
1000
0001
,
0010
0100
1000
0001
0010
0100
0010
0100
0010
0100
0010
0100
0010
0100
0010
0100
,
0010
0100
1000
0100
0010
0001
1000
0100
0010
0001
1000
0100
0010
0001
0010
0100
,
1000
0001
1000
0001
1000
0001
1000
0001
1000
0100
0010
0100
0010
0100
0010
0001
,
0100
0001
0100
0001
0010
1000
0010
1000
0010
1000
0010
0100
1000
0100
0010
0001
,
0010
0100
0010
0001
1000
0100
0001
0100
0010
0100
1000
0001
0010
0100
1000
0001
,
0010
0000
0100
0000
2020
0000
0000
0000
3030
0000
0000
0000
1000
0001
0000
0000
0000
0000
0000
0000
0000
0000
0000
0000
1000
0001
0000
0000
0000
0000
0000
0000
,
0000
0000
0000
0000
1000
0001
0000
0000
0000
0000
0000
0010
0100
0000
0000
0000
0000
0010
0100
0000
0000
0000
0010
0000
0100
0000
0000
0000
0010
0100
0000
0000
,
0000
0010
0100
0000
0000
0000
0000
0000
0000
0000
0000
0000
0000
0000
0000
0000
0000
0000
0000
0000
0011
0000
0000
0000
0011
0000
0000
0000
0011
0000
0000
0000
,
0000
0000
0000
0000
0000
0000
0000
0000
0000
0000
1010
0000
0000
0000
0000
0000
0000
0000
1010
0000
0000
0000
0000
0000
0000
0000
1000
0000
0000
0100
0000
0000
1000
0000
0000
0000
0000
0000
0000
0000
0000
0000
0000
0000
0000
0000
0000
0000
0021
0000
0000
0000
0000
0000
0000
0000
0000
0000
0000
0000
0000
0000
0000
0000
,
1130
0000
0001
0010
0100
1000
0001
0100
0010
0001
1000
0100
0001
0010
1000
0100
,
0001
0000
0000
1000
0000
0000
0100
0000
0000
0010
0000
0000
1000
0000
0000
0001
0000
0000
0100
0000
0000
0010
0000
0000
1000
0000
0000
0010
0000
0000
0100
0000
0000
0001
0000
0000
1000
0000
0000
0000
0010
0000
0100
0000
0000
0000
0000
0000
,
0010
0100
0000
0000
0010
0100
0000
0000
0010
0100
0000
0000
0010
0100
0000
0000
0010
0100
0000
0000
0010
0100
0000
0000
,
0010
0100
0000
0000
0010
0100
0000
0000
0220
0000
0000
0000
0330
0000
0000
0000
0000
0000
0000
0000
0000
0000
0000
0000
,
1100
0000
0001
0010
0100
1000
0100
0001
1000
0010
0100
0001
1100
0000
1100
0000
,
0000
0110
0001
0010
1000
0100
0001
0100
0010
0100
0010
1000
0010
0100
0001
0010
,
0100
1000
0100
0001
0010
0100
0010
0001
0010
1000
0100
0010
0001
0100
0010
0100
,
0001
0100
0010
0001
0010
0100
1000
0100
0010
0001
0010
0100
0001
0010
0001
0100
,
1000
0001
1000
0100
1000
0001
1000
0010
1000
0001
0100
0010
0001
0100
0010
0001
,
1000
0100
0001
0100
0010
1000
0001
0010
0100
1000
0100
0010
0001
1000
0001
0100
,
0001
0010
0001
1000
0001
0100
0001
0010
0100
0001
1000
0100
0010
0001
1000
0100
,
0002
0000
0000
0000
0000
0000
0000
0000
0000
0003
0000
0000
0000
0000
0000
0000
,
0011
1000
0100
0010
0001
1000
0100
0010
0001
0100
0010
0001
0100
1000
0010
0001
,
0100
1000
0010
0100
0011
0000
0011
0000
0011
0000
0011
0000
0110
0000
0000
0110
,
0000
0000
0000
0000
0000
1100
0000
0000
0000
0000
0000
0000
0110
0000
0000
0000
,
0000
0000
0101
0000
0000
0000
0000
0000
0020
0000
0000
0230
0000
0000
0311
0000
,
0000
0000
1001
0000
1100
0000
1010
0000
1001
0000
0000
0110
0000
0000
0101
0000
,
0000
1100
0000
0000
1100
0000
0000
0101
0000
0000
0101
0000
0000
0110
0000
0000
,
0010
0000
0100
0000
0010
0000
0100
0000
0010
0000
0100
0000
0010
0000
0100
0000
0010
0000
0100
0000
0010
0000
0100
0000
0010
0000
0100
0000
0001
0010
0100
1000
,
0001
0000
0000
0010
0000
0000
0100
0000
0000
0001
0000
0000
0010
0000
0000
0100
0000
0000
0001
0000
0000
1000
0000
0000
0100
0000
0000
0000
0100
0000
0000
0000
0100
0000
0000
0000
0100
0000
0000
0000
0100
0000
0000
0000
0100
0000
0000
0000
,
0110
0100
0100
0100
0001
0001
0001
0001
,
1000
1000
1000
0100
0100
0100
0100
0100
,
1000
1000
1000
0010
0010
0010
0001
0001
,
0001
1000
1000
1000
0001
0001
0001
0001
,
0002
0000
0000
0100
0000
0000
0010
0000
,
0000
1000
0000
0000
0100
0100
0100
0100
,
2003
0000
0000
0100
0000
0000
0001
0000
,
0000
0000
0000
0000
0000
0000
0010
0000
0000
0000
0000
0000
0000
0000
0000
0000
0000
0000
0000
0000
0000
3000
0001
0000
0010
0000
0100
0000
2000
0000
0000
0000
0000
0000
0000
0000
3000
0000
0000
0000
0000
0000
0000
0000
0000
0000
0000
0000
,
0010
0010
0010
0010
0110
0100
0100
0100
,
1100
1000
1000
1000
1001
0001
0001
0001
,
0011
1000
0100
0010
0001
1000
0100
0010
0001
1000
0100
0010
0001
0010
0100
1000
,
0001
0010
0100
1000
0100
0010
0100
1000
0001
0010
1000
0100
0001
0010
1000
0100
,
0020
0000
0000
0000
,
0032
0000
0023
0000
,
0230
0000
0000
0302
0023
0000
0000
0000
,
0000
0000
0230
2300
,
3020
0000
0230
0000
,
0000
0000
0302
0000
,
0023
0000
0230
0000
,
0000
0000
0000
0000
,
1302
0000
0000
0000
,
0213
0000
2310
0000
,
3102
0000
0000
1203
0321
0000
0000
0000
,
0000
0000
2130
3102
,
0123
0000
2130
0000
,
0000
0000
3012
0000
,
0213
0000
0000
0000
,
0000
0000
0000
0000
,
1312
0000
0000
0000
,
1123
0000
2131
0000
,
3211
0000
0000
1312
2113
0000
0000
0000
,
0000
0000
3112
1213
,
1321
0000
2131
0000
,
0000
0000
3112
0000
,
1213
0000
2311
0000
,
0000
0000
0000
3000
,
0012
0003
1000
0001
2000
3000
0010
1000
,
0200
0000
0300
0000
0011
1100
0110
1001
,
0110
0000
0000
0001
0010
0100
1000
0010
,
0200
0000
0000
0000
0320
0000
0000
0030
,
1020
0030
0001
0100
0020
0030
1000
0100
,
0002
0003
2001
0000
,
0000
0000
0000
0000
0000
0000
0011
0000
0000
0000
0000
0110
0000
0000
0000
0000
,
0000
0000
0000
0000
0000
0000
0101
0000
0000
0000
0000
0000
0000
0000
0000
3000
0000
0000
0000
0000
0001
0000
0010
0000
0100
0000
1000
0000
0000
0000
0000
0000
0000
0000
0000
0000
0000
0000
0000
0000
0000
0000
0000
0000
0000
0000
0000
0000
,
0101
0010
0100
1001
0100
0010
1100
0001
,
0100
0011
0100
0010
1100
1000
0001
0100
,
1010
0001
1000
0101
0010
1000
0110
0001
,
0010
2200
0000
3300
0011
0000
1100
0000
,
0110
0001
0010
1001
0100
1000
0011
0100
,
0001
1100
0010
0100
1010
0100
0001
0010
,
0101
1000
0001
0110
0001
0010
1100
0001
,
0100
0022
0000
0033
1100
0000
0011
0000
,
1100
0100
1010
0010
1100
0100
0011
0010
,
1001
0001
1010
1000
0110
0010
0101
0100
,
1001
0001
1010
1000
0110
0010
0101
0001
,
0100
2020
0000
3030
0101
0000
0011
0000
,
1001
1000
1010
1000
1100
1000
1001
1000
,
1100
1000
1010
1000
1001
1000
1010
0010
,
0011
0010
0110
0010
1010
0010
0110
0100
,
0100
1100
1000
1000
1010
0010
0110
0100
,
0101
0001
1001
1000
0001
0001
0001
0100
,
1000
0100
0001
1000
1000
0010
0010
1000
,
1000
0100
0010
2002
0000
0000
0000
3003
;
